hit counter
Detroit Rock City (1999) (1080p x265 HEVC 10bit BluRay AC3 5.1) [... > 영화 > 모던 토렌트 더토렌트
 [구글검색] 구글에서 더토렌트 검색 - 구글에서 토렌트를 검색하실 때에 검색어 뒤에 더토렌트를 꼭 붙여서 검색하세요.     더토렌트에서 광고중인 웹에 문제가 있다면 메뉴에 나와 있는 운영자 이메일로 연락 주십시오.     사용자님의 다운로드가 완료될 때까지 저희가 함께하겠습니다. 편안하고 즐거운 시간 되십시오.

파일몽

Detroit Rock City (1999) (1080p x265 HEVC 10bit BluRay AC3 5.1) [... 토렌트
  • 줄거리:    General Format : Matroska Format version : Version 4 File size : 7.65 GiB Duration : 1 h 34 min Overall bit rate : 11.6 Mb/s Movie name : Detroit Rock City (1999) Encoded date : UTC 2021-10-25 11:11:55 Writing application : mkvmerge v59.0.0 (Shining Star) 64-bit Writing library : libebml v1.4.2 + libmatroska v1.6.4 Video ID : 1 Format : HEVC Format/Info : High Efficiency Video Coding Format profile : Main [email protected]@Main Codec ID : V_MPEGH/ISO/HEVC Duration : 1 h 34 min Bit rate : 10.2 Mb/s Width : 1 920 pixels Height : 800 pixels Display aspect ratio : 2.40:1 Frame rate mode : Constant Frame rate : 23.976 (24000/1001) FPS Color space : YUV Chroma subsampling : 4:2:0 Bit depth : 10 bits Bits/(Pixel*Frame) : 0.277 Stream size : 6.74 GiB (88%) Writing library : x265 3.5+12+14-106329cbd:[Windows][GCC 10.3.0][64 bit] 10bit Encoding settings : cpuid=1111039 / frame-threads=4 / numa-pools=24 / wpp / no-pmode / no-pme / no-psnr / no-ssim / log-level=2 / input-csp=1 / input-res=1920x800 / interlace=0 / total-frames=136097 / level-idc=0 / high-tier=1 / uhd-bd=0 / ref=4 / no-allow-non-conformance / no-repeat-headers / annexb / no-aud / no-eob / no-eos / no-hrd / info / hash=0 / no-temporal-layers / open-gop / min-keyint=23 / keyint=250 / gop-lookahead=0 / bframes=8 / b-adapt=2 / b-pyramid / bframe-bias=0 / rc-lookahead=80 / lookahead-slices=5 / scenecut=40 / no-hist-scenecut / radl=0 / no-splice / no-intra-refresh / ctu=64 / min-cu-size=8 / rect / no-amp / max-tu-size=32 / tu-inter-depth=1 / tu-intra-depth=1 / limit-tu=0 / rdoq-level=2 / dynamic-rd=0.00 / no-ssim-rd / signhide / no-tskip / nr-intra=0 / nr-inter=0 / no-constrained-intra / strong-intra-smoothing / max-merge=3 / limit-refs=3 / limit-modes / me=3 / subme=3 / merange=57 / temporal-mvp / no-frame-dup / no-hme / weightp / no-weightb / no-analyze-src-pics / deblock=0:0 / sao / no-sao-non-deblock / rd=4 / selective-sao=4 / no-early-skip / rskip / no-fast-intra / no-tskip-fast / no-cu-lossless / no-b-intra / no-splitrd-skip / rdpenalty=0 / psy-rd=2.00 / psy-rdoq=1.00 / no-rd-refine / no-lossless / cbqpoffs=0 / crqpoffs=0 / rc=crf / crf=19.0 / qcomp=0.60 / qpstep=4 / stats-write=0 / stats-read=0 / ipratio=1.40 / pbratio=1.30 / aq-mode=3 / aq-strength=1.00 / cutree / zone-count=0 / no-strict-cbr / qg-size=32 / no-rc-grain / qpmax=69 / qpmin=0 / no-const-vbv / sar=0 / overscan=0 / videoformat=5 / range=0 / colorprim=2 / transfer=2 / colormatrix=2 / chromaloc=0 / display-window=0 / cll=0,0 / min-luma=0 / max-luma=1023 / log2-max-poc-lsb=8 / vui-timing-info / vui-hrd-info / slices=1 / no-opt-qp-pps / no-opt-ref-list-length-pps / no-multi-pass-opt-rps / scenecut-bias=0.05 / hist-threshold=0.03 / no-opt-cu-delta-qp / no-aq-motion / no-hdr10 / no-hdr10-opt / no-dhdr10-opt / no-idr-recovery-sei / analysis-reuse-level=0 / analysis-save-reuse-level=0 / analysis-load-reuse-level=0 / scale-factor=0 / refine-intra=0 / refine-inter=0 / refine-mv=1 / refine-ctu-distortion=0 / no-limit-sao / ctu-info=0 / no-lowpass-dct / refine-analysis-type=0 / copy-pic=1 / max-ausize-factor=1.0 / no-dynamic-refine / no-single-sei / no-hevc-aq / no-svt / no-field / qp-adaptation-range=1.00 / scenecut-aware-qp=0 / conformance-window-right-offset=0 / conformance-window-bottom-offset=0 / decoder-max-rate=0 / no-vbv-live-multi-pass Default : Yes Forced : No Audio #1 ID : 2 Format : AC-3 Format/Info : Audio Coding 3 Commercial name : Dolby Digital Codec ID : A_AC3 Duration : 1 h 34 min Bit rate mode : Constant Bit rate : 640 kb/s Channel(s) : 6 channels Channel layout : L R C LFE Ls Rs Sampling rate : 48.0 kHz Frame rate : 31.250 FPS (1536 SPF) Compression mode : Lossy Stream size : 433 MiB (6%) Language : English Service kind : Complete Main Default : Yes Forced : No Audio #2 ID : 3 Format : AC-3 Format/Info : Audio Coding 3 Commercial name : Dolby Digital Format settings : Dolby Surround Codec ID : A_AC3 Duration : 1 h 34 min Bit rate mode : Constant Bit rate : 192 kb/s Channel(s) : 2 channels Channel layout : L R Sampling rate : 48.0 kHz Frame rate : 31.250 FPS (1536 SPF) Compression mode : Lossy Stream size : 130 MiB (2%) Title : Commentary with director Adam Rifkin Language : English Service kind : Complete Main Default : No Forced : No Audio #3 ID : 4 Format : AC-3 Format/Info : Audio Coding 3 Commercial name : Dolby Digital Format settings : Dolby Surround Codec ID : A_AC3 Duration : 1 h 34 min Bit rate mode : Constant Bit rate : 192 kb/s Channel(s) : 2 channels Channel layout : L R Sampling rate : 48.0 kHz Frame rate : 31.250 FPS (1536 SPF) Compression mode : Lossy Stream size : 130 MiB (2%) Title : Commentary with Screenwriter Carl V. Dupr챕 ; Actors James DeBello & Shannon Tweed; Editor Peter Schink Language : English Service kind : Complete Main Default : No Forced : No Audio #4 ID : 5 Format : AC-3 Format/Info : Audio Coding 3 Commercial name : Dolby Digital Format settings : Dolby Surround Codec ID : A_AC3 Duration : 1 h 34 min Bit rate mode : Constant Bit rate : 192 kb/s Channel(s) : 2 channels Channel layout : L R Sampling rate : 48.0 kHz Frame rate : 31.250 FPS (1536 SPF) Compression mode : Lossy Stream size : 130 MiB (2%) Title : Commentary Kiss: Gene Simmons, Peter Criss, Paul Stanley, and Ace Frehley Language : English Service kind : Complete Main Default : No Forced : No Text #1 ID : 6 Format : PGS Muxing mode : zlib Codec ID : S_HDMV/PGS Codec ID/Info : Picture based subtitle format used on BDs/HD-DVDs Duration : 1 h 34 min Bit rate : 35.1 kb/s Count of elements : 2525 Stream size : 23.6 MiB (0%) Language : English Default : No Forced : No Text #2 ID : 7 Format : PGS Muxing mode : zlib Codec ID : S_HDMV/PGS Codec ID/Info : Picture based subtitle format used on BDs/HD-DVDs Duration : 1 h 33 min Bit rate : 25.3 kb/s Count of elements : 1909 Stream size : 16.8 MiB (0%) Language : French Default : No Forced : No Text #3 ID : 8 Format : PGS Muxing mode : zlib Codec ID : S_HDMV/PGS Codec ID/Info : Picture based subtitle format used on BDs/HD-DVDs Duration : 1 h 34 min Bit rate : 18.8 kb/s Count of elements : 2081 Stream size : 12.6 MiB (0%) Language : Japanese Default : No Forced : No Text #4 ID : 9 Format : PGS Muxing mode : zlib Codec ID : S_HDMV/PGS Codec ID/Info : Picture based subtitle format used on BDs/HD-DVDs Duration : 1 h 34 min Bit rate : 40.1 kb/s Count of elements : 2594 Stream size : 27.1 MiB (0%) Language : Japanese Default : No Forced : No Text #5 ID : 10 Format : PGS Muxing mode : zlib Codec ID : S_HDMV/PGS Codec ID/Info : Picture based subtitle format used on BDs/HD-DVDs Duration : 1 h 34 min Bit rate : 48.6 kb/s Count of elements : 3090 Stream size : 32.7 MiB (0%) Language : Japanese Default : No Forced : No Text #6 ID : 11 Format : PGS Muxing mode : zlib Codec ID : S_HDMV/PGS Codec ID/Info : Picture based subtitle format used on BDs/HD-DVDs Duration : 1 h 34 min Bit rate : 43.1 kb/s Count of elements : 2740 Stream size : 29.0 MiB (0%) Language : Japanese Default : No Forced : No Text #7 ID : 12 Format : PGS Muxing mode : zlib Codec ID : S_HDMV/PGS Codec ID/Info : Picture based subtitle format used on BDs/HD-DVDs Duration : 1 h 21 min Bit rate : 751 b/s Count of elements : 337 Stream size : 446 KiB (0%) Language : Japanese Default : No Forced : No Text #8 ID : 13 Format : PGS Muxing mode : zlib Codec ID : S_HDMV/PGS Codec ID/Info : Picture based subtitle format used on BDs/HD-DVDs Duration : 1 h 32 min Bit rate : 28.6 kb/s Count of elements : 2015 Stream size : 19.0 MiB (0%) Language : Portuguese Default : No Forced : No Text #9 ID : 14 Format : PGS Muxing mode : zlib Codec ID : S_HDMV/PGS Codec ID/Info : Picture based subtitle format used on BDs/HD-DVDs Duration : 1 h 32 min Bit rate : 29.5 kb/s Count of elements : 2019 Stream size : 19.6 MiB (0%) Language : Spanish Default : No Forced : No Text #10 ID : 15 Format : PGS Muxing mode : zlib Codec ID : S_HDMV/PGS Codec ID/Info : Picture based subtitle format used on BDs/HD-DVDs Duration : 1 h 33 min Bit rate : 30.9 kb/s Count of elements : 2157 Stream size : 20.7 MiB (0%) Language : Spanish Default : No Forced : No Menu 00:00:00.000 : Chapter 01 00:11:12.005 : Chapter 02 00:20:22.263 : Chapter 03 00:31:18.210 : Chapter 04 00:42:27.712 : Chapter 05 00:51:55.738 : Chapter 06 01:02:06.389 : Chapter 07 01:12:08.032 : Chapter 08 01:22:44.418 : Chapter 09 01:28:58.375 : Chapter 10 Source: Remux 19.7 GB Coming Soon: Dirty Work Deadpool 4k The Kings Speech The Kingdom The Interview The Insider Deadpool 2 4k Dogma Dont Be a Menace Drive Dumb and Dumber Despicable Me 2 4k The Imaginarium of Doctor Parnassus The Illusionist The Ides of March The Hurricane Doctor Strange 4k Mobile Suit Gundam: Iron-Blooded Orphans S01 Berserk: Golden Age Arc I - The Egg of the King Ballers S03 Detroit Rock City (1999) (1080p x265 HEVC 10bit BluRay AC3 5.1) [...…
  • 인기 연관 검색어 구글 검색:    
  • 관련 자료(가나다순):    Detroit Rock City (1999) (1080p x265 HEVC 10bit BluRay AC3 5 1)    Detroit Rock City (1999) (1080p x265 HEVC 10bit BluRay AC3 5 1)
  • 관련 자료(시간순):    Detroit Rock City (1999) (1080p x265 HEVC 10bit BluRay AC3 5 1)    Detroit Rock City (1999) (1080p x265 HEVC 10bit BluRay AC3 5 1)
  • 같은 시각 자료:    Shortbus (2006) 720p BluRay X264 [MoviesFD7]    Danger.Next.Door.2021.720p.WEB.H264-BAE
  직접 다운로드      무료 다운로드

Detroit Rock City (1999) (1080p x265 HEVC 10bit BluRay AC3 5.1) [...       
댓글 0 조회 28 인증 0 신고 0

Detroit Rock City (1999) (1080p x265 HEVC 10bit BluRay AC3 5.1) [...
Detroit Rock City (1999) (1080p x265 HEVC 10bit BluRay AC3 5.1) [...
Detroit-Rock-City-1999-mkv-snapshot-00-39-06-2021-10-25-07-42-24.png

Detroit-Rock-City-1999-mkv-snapshot-01-06-28-2021-10-25-07-47-42.png

Detroit-Rock-City-1999-mkv-snapshot-01-09-44-2021-10-25-07-45-10.png

Detroit-Rock-City-1999-mkv-snapshot-00-39-06-2021-10-25-07-42-24.png

Detroit-Rock-City-1999-mkv-snapshot-01-06-28-2021-10-25-07-47-42.png

Detroit-Rock-City-1999-mkv-snapshot-01-09-44-2021-10-25-07-45-10.png

General

Format : Matroska
Format version : Version 4
File size : 7.65 GiB
Duration : 1 h 34 min
Overall bit rate : 11.6 Mb/s
Movie name : Detroit Rock City (1999)
Encoded date : UTC 2021-10-25 11:11:55
Writing application : mkvmerge v59.0.0 (Shining Star) 64-bit
Writing library : libebml v1.4.2 + libmatroska v1.6.4

Video
ID : 1
Format : HEVC
Format/Info : High Efficiency Video Coding
Format profile : Main [email protected]@Main
Codec ID : V_MPEGH/ISO/HEVC
Duration : 1 h 34 min
Bit rate : 10.2 Mb/s
Width : 1 920 pixels
Height : 800 pixels
Display aspect ratio : 2.40:1
Frame rate mode : Constant
Frame rate : 23.976 (24000/1001) FPS
Color space : YUV
Chroma subsampling : 4:2:0
Bit depth : 10 bits
Bits/(Pixel*Frame) : 0.277
Stream size : 6.74 GiB (88%)
Writing library : x265 3.5+12+14-106329cbd:[Windows][GCC 10.3.0][64 bit] 10bit
Encoding settings : cpuid=1111039 / frame-threads=4 / numa-pools=24 / wpp / no-pmode / no-pme / no-psnr / no-ssim / log-level=2 / input-csp=1 / input-res=1920x800 / interlace=0 / total-frames=136097 / level-idc=0 / high-tier=1 / uhd-bd=0 / ref=4 / no-allow-non-conformance / no-repeat-headers / annexb / no-aud / no-eob / no-eos / no-hrd / info / hash=0 / no-temporal-layers / open-gop / min-keyint=23 / keyint=250 / gop-lookahead=0 / bframes=8 / b-adapt=2 / b-pyramid / bframe-bias=0 / rc-lookahead=80 / lookahead-slices=5 / scenecut=40 / no-hist-scenecut / radl=0 / no-splice / no-intra-refresh / ctu=64 / min-cu-size=8 / rect / no-amp / max-tu-size=32 / tu-inter-depth=1 / tu-intra-depth=1 / limit-tu=0 / rdoq-level=2 / dynamic-rd=0.00 / no-ssim-rd / signhide / no-tskip / nr-intra=0 / nr-inter=0 / no-constrained-intra / strong-intra-smoothing / max-merge=3 / limit-refs=3 / limit-modes / me=3 / subme=3 / merange=57 / temporal-mvp / no-frame-dup / no-hme / weightp / no-weightb / no-analyze-src-pics / deblock=0:0 / sao / no-sao-non-deblock / rd=4 / selective-sao=4 / no-early-skip / rskip / no-fast-intra / no-tskip-fast / no-cu-lossless / no-b-intra / no-splitrd-skip / rdpenalty=0 / psy-rd=2.00 / psy-rdoq=1.00 / no-rd-refine / no-lossless / cbqpoffs=0 / crqpoffs=0 / rc=crf / crf=19.0 / qcomp=0.60 / qpstep=4 / stats-write=0 / stats-read=0 / ipratio=1.40 / pbratio=1.30 / aq-mode=3 / aq-strength=1.00 / cutree / zone-count=0 / no-strict-cbr / qg-size=32 / no-rc-grain / qpmax=69 / qpmin=0 / no-const-vbv / sar=0 / overscan=0 / videoformat=5 / range=0 / colorprim=2 / transfer=2 / colormatrix=2 / chromaloc=0 / display-window=0 / cll=0,0 / min-luma=0 / max-luma=1023 / log2-max-poc-lsb=8 / vui-timing-info / vui-hrd-info / slices=1 / no-opt-qp-pps / no-opt-ref-list-length-pps / no-multi-pass-opt-rps / scenecut-bias=0.05 / hist-threshold=0.03 / no-opt-cu-delta-qp / no-aq-motion / no-hdr10 / no-hdr10-opt / no-dhdr10-opt / no-idr-recovery-sei / analysis-reuse-level=0 / analysis-save-reuse-level=0 / analysis-load-reuse-level=0 / scale-factor=0 / refine-intra=0 / refine-inter=0 / refine-mv=1 / refine-ctu-distortion=0 / no-limit-sao / ctu-info=0 / no-lowpass-dct / refine-analysis-type=0 / copy-pic=1 / max-ausize-factor=1.0 / no-dynamic-refine / no-single-sei / no-hevc-aq / no-svt / no-field / qp-adaptation-range=1.00 / scenecut-aware-qp=0 / conformance-window-right-offset=0 / conformance-window-bottom-offset=0 / decoder-max-rate=0 / no-vbv-live-multi-pass
Default : Yes
Forced : No

Audio #1
ID : 2
Format : AC-3
Format/Info : Audio Coding 3
Commercial name : Dolby Digital
Codec ID : A_AC3
Duration : 1 h 34 min
Bit rate mode : Constant
Bit rate : 640 kb/s
Channel(s) : 6 channels
Channel layout : L R C LFE Ls Rs
Sampling rate : 48.0 kHz
Frame rate : 31.250 FPS (1536 SPF)
Compression mode : Lossy
Stream size : 433 MiB (6%)
Language : English
Service kind : Complete Main
Default : Yes
Forced : No

Audio #2
ID : 3
Format : AC-3
Format/Info : Audio Coding 3
Commercial name : Dolby Digital
Format settings : Dolby Surround
Codec ID : A_AC3
Duration : 1 h 34 min
Bit rate mode : Constant
Bit rate : 192 kb/s
Channel(s) : 2 channels
Channel layout : L R
Sampling rate : 48.0 kHz
Frame rate : 31.250 FPS (1536 SPF)
Compression mode : Lossy
Stream size : 130 MiB (2%)
Title : Commentary with director Adam Rifkin
Language : English
Service kind : Complete Main
Default : No
Forced : No

Audio #3
ID : 4
Format : AC-3
Format/Info : Audio Coding 3
Commercial name : Dolby Digital
Format settings : Dolby Surround
Codec ID : A_AC3
Duration : 1 h 34 min
Bit rate mode : Constant
Bit rate : 192 kb/s
Channel(s) : 2 channels
Channel layout : L R
Sampling rate : 48.0 kHz
Frame rate : 31.250 FPS (1536 SPF)
Compression mode : Lossy
Stream size : 130 MiB (2%)
Title : Commentary with Screenwriter Carl V. Dupr챕 ; Actors James DeBello & Shannon Tweed; Editor Peter Schink
Language : English
Service kind : Complete Main
Default : No
Forced : No

Audio #4
ID : 5
Format : AC-3
Format/Info : Audio Coding 3
Commercial name : Dolby Digital
Format settings : Dolby Surround
Codec ID : A_AC3
Duration : 1 h 34 min
Bit rate mode : Constant
Bit rate : 192 kb/s
Channel(s) : 2 channels
Channel layout : L R
Sampling rate : 48.0 kHz
Frame rate : 31.250 FPS (1536 SPF)
Compression mode : Lossy
Stream size : 130 MiB (2%)
Title : Commentary Kiss: Gene Simmons, Peter Criss, Paul Stanley, and Ace Frehley
Language : English
Service kind : Complete Main
Default : No
Forced : No

Text #1
ID : 6
Format : PGS
Muxing mode : zlib
Codec ID : S_HDMV/PGS
Codec ID/Info : Picture based subtitle format used on BDs/HD-DVDs
Duration : 1 h 34 min
Bit rate : 35.1 kb/s
Count of elements : 2525
Stream size : 23.6 MiB (0%)
Language : English
Default : No
Forced : No

Text #2
ID : 7
Format : PGS
Muxing mode : zlib
Codec ID : S_HDMV/PGS
Codec ID/Info : Picture based subtitle format used on BDs/HD-DVDs
Duration : 1 h 33 min
Bit rate : 25.3 kb/s
Count of elements : 1909
Stream size : 16.8 MiB (0%)
Language : French
Default : No
Forced : No

Text #3
ID : 8
Format : PGS
Muxing mode : zlib
Codec ID : S_HDMV/PGS
Codec ID/Info : Picture based subtitle format used on BDs/HD-DVDs
Duration : 1 h 34 min
Bit rate : 18.8 kb/s
Count of elements : 2081
Stream size : 12.6 MiB (0%)
Language : Japanese
Default : No
Forced : No

Text #4
ID : 9
Format : PGS
Muxing mode : zlib
Codec ID : S_HDMV/PGS
Codec ID/Info : Picture based subtitle format used on BDs/HD-DVDs
Duration : 1 h 34 min
Bit rate : 40.1 kb/s
Count of elements : 2594
Stream size : 27.1 MiB (0%)
Language : Japanese
Default : No
Forced : No

Text #5
ID : 10
Format : PGS
Muxing mode : zlib
Codec ID : S_HDMV/PGS
Codec ID/Info : Picture based subtitle format used on BDs/HD-DVDs
Duration : 1 h 34 min
Bit rate : 48.6 kb/s
Count of elements : 3090
Stream size : 32.7 MiB (0%)
Language : Japanese
Default : No
Forced : No

Text #6
ID : 11
Format : PGS
Muxing mode : zlib
Codec ID : S_HDMV/PGS
Codec ID/Info : Picture based subtitle format used on BDs/HD-DVDs
Duration : 1 h 34 min
Bit rate : 43.1 kb/s
Count of elements : 2740
Stream size : 29.0 MiB (0%)
Language : Japanese
Default : No
Forced : No

Text #7
ID : 12
Format : PGS
Muxing mode : zlib
Codec ID : S_HDMV/PGS
Codec ID/Info : Picture based subtitle format used on BDs/HD-DVDs
Duration : 1 h 21 min
Bit rate : 751 b/s
Count of elements : 337
Stream size : 446 KiB (0%)
Language : Japanese
Default : No
Forced : No

Text #8
ID : 13
Format : PGS
Muxing mode : zlib
Codec ID : S_HDMV/PGS
Codec ID/Info : Picture based subtitle format used on BDs/HD-DVDs
Duration : 1 h 32 min
Bit rate : 28.6 kb/s
Count of elements : 2015
Stream size : 19.0 MiB (0%)
Language : Portuguese
Default : No
Forced : No

Text #9
ID : 14
Format : PGS
Muxing mode : zlib
Codec ID : S_HDMV/PGS
Codec ID/Info : Picture based subtitle format used on BDs/HD-DVDs
Duration : 1 h 32 min
Bit rate : 29.5 kb/s
Count of elements : 2019
Stream size : 19.6 MiB (0%)
Language : Spanish
Default : No
Forced : No

Text #10
ID : 15
Format : PGS
Muxing mode : zlib
Codec ID : S_HDMV/PGS
Codec ID/Info : Picture based subtitle format used on BDs/HD-DVDs
Duration : 1 h 33 min
Bit rate : 30.9 kb/s
Count of elements : 2157
Stream size : 20.7 MiB (0%)
Language : Spanish
Default : No
Forced : No

Menu
00:00:00.000 : Chapter 01
00:11:12.005 : Chapter 02
00:20:22.263 : Chapter 03
00:31:18.210 : Chapter 04
00:42:27.712 : Chapter 05
00:51:55.738 : Chapter 06
01:02:06.389 : Chapter 07
01:12:08.032 : Chapter 08
01:22:44.418 : Chapter 09
01:28:58.375 : Chapter 10

Source:

Remux 19.7 GB

Coming Soon:

Dirty Work
Deadpool 4k
The Kings Speech
The Kingdom
The Interview
The Insider
Deadpool 2 4k
Dogma
Dont Be a Menace
Drive
Dumb and Dumber
Despicable Me 2 4k
The Imaginarium of Doctor Parnassus
The Illusionist
The Ides of March
The Hurricane
Doctor Strange 4k
Mobile Suit Gundam: Iron-Blooded Orphans S01
Berserk: Golden Age Arc I - The Egg of the King
Ballers S03

Detroit Rock City (1999) (1080p x265 HEVC 10bit BluRay AC3 5.1) [...


<< 이 게시판에서 관련된 자료 목록 >>
0 Comments     0.0 / 0
 [구글검색] 구글에서 더토렌트 검색 - 구글에서 토렌트를 검색하실 때에 검색어 뒤에 더토렌트를 꼭 붙여서 검색하세요.     더토렌트에서 광고중인 웹에 문제가 있다면 메뉴에 나와 있는 운영자 이메일로 연락 주십시오. 우리는 당신에게 꼭 필요한 사이트만 광고합니다.     사용자님의 다운로드가 완료될 때까지 저희가 함께하겠습니다. 편안하고 즐거운 시간 되십시오.

파일비트

오늘(6시간)의 업데이트


오늘의 인기 검색어


현재 인기있는 자료


영화 인기글


오늘의 인기글


실시간 검색어


3일 인기 자료


Facebook Twitter GooglePlus KakaoStory NaverBand