hit counter
Scooby-Doo! in Arabian Nights (1994) 480p DVDRip x264 MSub [Dual ... > 영화 > 모던 토렌트 더토렌트
 [구글검색] 구글에서 더토렌트 검색 - 구글에서 토렌트를 검색하실 때에 검색어 뒤에 더토렌트를 꼭 붙여서 검색하세요.     더토렌트에서 광고중인 웹에 문제가 있다면 메뉴에 나와 있는 운영자 이메일로 연락 주십시오.     사용자님의 다운로드가 완료될 때까지 저희가 함께하겠습니다. 편안하고 즐거운 시간 되십시오.

파일비트

Scooby-Doo! in Arabian Nights (1994) 480p DVDRip x264 MSub [Dual ... 토렌트
  • 줄거리:    Video ID : 1 Format : AVC Format/Info : Advanced Video Codec Format profile : [email protected] Format settings : CABAC / 4 Ref Frames Format settings, CABAC : Yes Format settings, Reference frames : 4 frames Codec ID : V_MPEG4/ISO/AVC Duration : 1 h 9 min Bit rate : 1 000 kb/s Width : 700 pixels Height : 460 pixels Display aspect ratio : 4:3 Original display aspect ratio : 4:3 Frame rate mode : Constant Frame rate : 23.976 (24000/1001) FPS Color space : YUV Chroma subsampling : 4:2:0 Bit depth : 8 bits Scan type : Progressive Bits/(Pixel*Frame) : 0.130 Stream size : 496 MiB (73%) Title : -==$ID==- Default : Yes Forced : No Color range : Limited Color primaries : BT.601 NTSC Transfer characteristics : BT.709 Matrix coefficients : BT.601 Audio #1 ID : 2 Format : AAC LC SBR Format/Info : Advanced Audio Codec Low Complexity with Spectral Band Replication Commercial name : HE-AAC Format settings : Explicit Codec ID : A_AAC-2 Duration : 1 h 9 min Bit rate : 129 kb/s Channel(s) : 2 channels Channel layout : L R Sampling rate : 48.0 kHz Frame rate : 23.438 FPS (2048 SPF) Compression mode : Lossy Delay relative to video : 31 ms Stream size : 64.0 MiB (9%) Title : -==$ID==- Language : English Default : Yes Forced : No Audio #2 ID : 3 Format : AC-3 Format/Info : Audio Coding 3 Commercial name : Dolby Digital Codec ID : A_AC3 Duration : 1 h 9 min Bit rate mode : Constant Bit rate : 224 kb/s Channel(s) : 2 channels Channel layout : L R Sampling rate : 48.0 kHz Frame rate : 31.250 FPS (1536 SPF) Compression mode : Lossy Stream size : 111 MiB (16%) Title : -==$ID==- Language : Hindi Service kind : Complete Main Default : Yes Forced : Yes Text #1 ID : 4 Format : VobSub Muxing mode : zlib Codec ID : S_VOBSUB Codec ID/Info : Picture based subtitle format used on DVDs Duration : 1 h 8 min Bit rate : 2 745 b/s Count of elements : 923 Stream size : 1.35 MiB (0%) Title : -==$ID==- Language : English Default : No Forced : No Text #2 ID : 5 Format : VobSub Muxing mode : zlib Codec ID : S_VOBSUB Codec ID/Info : Picture based subtitle format used on DVDs Duration : 1 h 8 min Bit rate : 3 023 b/s Count of elements : 943 Stream size : 1.48 MiB (0%) Title : -==$ID==- Language : French Default : No Forced : No Text #3 ID : 6 Format : VobSub Muxing mode : zlib Codec ID : S_VOBSUB Codec ID/Info : Picture based subtitle format used on DVDs Duration : 1 h 9 min Bit rate : 2 567 b/s Count of elements : 947 Stream size : 1.27 MiB (0%) Title : -==$ID==- Language : Spanish Default : No Forced : No Text #4 ID : 7 Format : VobSub Muxing mode : zlib Codec ID : S_VOBSUB Codec ID/Info : Picture based subtitle format used on DVDs Duration : 1 h 9 min Bit rate : 2 633 b/s Count of elements : 830 Stream size : 1.30 MiB (0%) Title : -==$ID==- Language : Portuguese Default : No Forced : No Text #5 ID : 8 Format : UTF-8 Codec ID : S_TEXT/UTF8 Codec ID/Info : UTF-8 Plain Text Duration : 1 h 41 min Bit rate : 0 b/s Count of elements : 7 Stream size : 308 Bytes (0%) Title : -==$ID==- Language : English Default : Yes Forced : Yes Scooby-Doo and the Ghoul School (1988) 480p DVDRip x264 MSub [Dual Audio] [Hindi DD2.0 + English AAC1.0]-==$ID==- Video ID : 1 Format : AVC Format/Info : Advanced Video Codec Format profile : [email protected] Format settings : CABAC / 4 Ref Frames Format settings, CABAC : Yes Format settings, Reference frames : 4 frames Codec ID : V_MPEG4/ISO/AVC Duration : 1 h 9 min Bit rate : 1 000 kb/s Width : 700 pixels Height : 460 pixels Display aspect ratio : 4:3 Original display aspect ratio : 4:3 Frame rate mode : Constant Frame rate : 23.976 (24000/1001) FPS Color space : YUV Chroma subsampling : 4:2:0 Bit depth : 8 bits Scan type : Progressive Bits/(Pixel*Frame) : 0.130 Stream size : 496 MiB (73%) Title : -==$ID==- Default : Yes Forced : No Color range : Limited Color primaries : BT.601 NTSC Transfer characteristics : BT.709 Matrix coefficients : BT.601 Audio #1 ID : 2 Format : AAC LC SBR Format/Info : Advanced Audio Codec Low Complexity with Spectral Band Replication Commercial name : HE-AAC Format settings : Explicit Codec ID : A_AAC-2 Duration : 1 h 9 min Bit rate : 129 kb/s Channel(s) : 2 channels Channel layout : L R Sampling rate : 48.0 kHz Frame rate : 23.438 FPS (2048 SPF) Compression mode : Lossy Delay relative to video : 31 ms Stream size : 64.0 MiB (9%) Title : -==$ID==- Language : English Default : Yes Forced : No Audio #2 ID : 3 Format : AC-3 Format/Info : Audio Coding 3 Commercial name : Dolby Digital Codec ID : A_AC3 Duration : 1 h 9 min Bit rate mode : Constant Bit rate : 224 kb/s Channel(s) : 2 channels Channel layout : L R Sampling rate : 48.0 kHz Frame rate : 31.250 FPS (1536 SPF) Compression mode : Lossy Stream size : 111 MiB (16%) Title : -==$ID==- Language : Hindi Service kind : Complete Main Default : Yes Forced : Yes Text #1 ID : 4 Format : VobSub Muxing mode : zlib Codec ID : S_VOBSUB Codec ID/Info : Picture based subtitle format used on DVDs Duration : 1 h 8 min Bit rate : 2 745 b/s Count of elements : 923 Stream size : 1.35 MiB (0%) Title : -==$ID==- Language : English Default : No Forced : No Text #2 ID : 5 Format : VobSub Muxing mode : zlib Codec ID : S_VOBSUB Codec ID/Info : Picture based subtitle format used on DVDs Duration : 1 h 8 min Bit rate : 3 023 b/s Count of elements : 943 Stream size : 1.48 MiB (0%) Title : -==$ID==- Language : French Default : No Forced : No Text #3 ID : 6 Format : VobSub Muxing mode : zlib Codec ID : S_VOBSUB Codec ID/Info : Picture based subtitle format used on DVDs Duration : 1 h 9 min Bit rate : 2 567 b/s Count of elements : 947 Stream size : 1.27 MiB (0%) Title : -==$ID==- Language : Spanish Default : No Forced : No Text #4 ID : 7 Format : VobSub Muxing mode : zlib Codec ID : S_VOBSUB Codec ID/Info : Picture based subtitle format used on DVDs Duration : 1 h 9 min Bit rate : 2 633 b/s Count of elements : 830 Stream size : 1.30 MiB (0%) Title : -==$ID==- Language : Portuguese Default : No Forced : No Text #5 ID : 8 Format : UTF-8 Codec ID : S_TEXT/UTF8 Codec ID/Info : UTF-8 Plain Text Duration : 1 h 41 min Bit rate : 0 b/s Count of elements : 7 Stream size : 308 Bytes (0%) Title : -==$ID==- Language : English Default : Yes Forced : Yes Quote:…
  • 인기 연관 검색어 구글 검색:    
  • 관련 자료(가나다순):    Aloha, Scooby-Doo! (2005) (1080p BluRay x265 HEVC 10bit EAC3 5 …    오늘의 추천 명화 스쿠비-두! 리젠드 오브 더 팬토사우르 Scooby-Doo! Legend of the Phant…
  • 관련 자료(시간순):    오늘의 추천 명화 스쿠비-두! 리젠드 오브 더 팬토사우르 Scooby-Doo! Legend of the Phant…    Scooby-Doo! in Arabian Nights (1994) 480p DVDRip x264 MSub Dual
  • 같은 시각 자료:    The.Deep.House.2021.HDRip.XviD.AC3-EVO    Frank.2021.1080p.WEBRip.1400MB.DD2.0.x264-GalaxyRG
  직접 다운로드      무료 다운로드

Scooby-Doo! in Arabian Nights (1994) 480p DVDRip x264 MSub [Dual ...       
댓글 0 조회 43 인증 0 신고 0

Scooby-Doo! in Arabian Nights (1994) 480p DVDRip x264 MSub [Dual ...
Scooby-Doo! in Arabian Nights (1994) 480p DVDRip x264 MSub [Dual ...
00139d7bfdcc9397984a1.jpg

Video
ID : 1
Format : AVC
Format/Info : Advanced Video Codec
Format profile : [email protected]
Format settings : CABAC / 4 Ref Frames
Format settings, CABAC : Yes
Format settings, Reference frames : 4 frames
Codec ID : V_MPEG4/ISO/AVC
Duration : 1 h 9 min
Bit rate : 1 000 kb/s
Width : 700 pixels
Height : 460 pixels
Display aspect ratio : 4:3
Original display aspect ratio : 4:3
Frame rate mode : Constant
Frame rate : 23.976 (24000/1001) FPS
Color space : YUV
Chroma subsampling : 4:2:0
Bit depth : 8 bits
Scan type : Progressive
Bits/(Pixel*Frame) : 0.130
Stream size : 496 MiB (73%)
Title : -==$ID==-
Default : Yes
Forced : No
Color range : Limited
Color primaries : BT.601 NTSC
Transfer characteristics : BT.709
Matrix coefficients : BT.601

Audio #1
ID : 2
Format : AAC LC SBR
Format/Info : Advanced Audio Codec Low Complexity with Spectral Band Replication
Commercial name : HE-AAC
Format settings : Explicit
Codec ID : A_AAC-2
Duration : 1 h 9 min
Bit rate : 129 kb/s
Channel(s) : 2 channels
Channel layout : L R
Sampling rate : 48.0 kHz
Frame rate : 23.438 FPS (2048 SPF)
Compression mode : Lossy
Delay relative to video : 31 ms
Stream size : 64.0 MiB (9%)
Title : -==$ID==-
Language : English
Default : Yes
Forced : No

Audio #2
ID : 3
Format : AC-3
Format/Info : Audio Coding 3
Commercial name : Dolby Digital
Codec ID : A_AC3
Duration : 1 h 9 min
Bit rate mode : Constant
Bit rate : 224 kb/s
Channel(s) : 2 channels
Channel layout : L R
Sampling rate : 48.0 kHz
Frame rate : 31.250 FPS (1536 SPF)
Compression mode : Lossy
Stream size : 111 MiB (16%)
Title : -==$ID==-
Language : Hindi
Service kind : Complete Main
Default : Yes
Forced : Yes

Text #1
ID : 4
Format : VobSub
Muxing mode : zlib
Codec ID : S_VOBSUB
Codec ID/Info : Picture based subtitle format used on DVDs
Duration : 1 h 8 min
Bit rate : 2 745 b/s
Count of elements : 923
Stream size : 1.35 MiB (0%)
Title : -==$ID==-
Language : English
Default : No
Forced : No

Text #2
ID : 5
Format : VobSub
Muxing mode : zlib
Codec ID : S_VOBSUB
Codec ID/Info : Picture based subtitle format used on DVDs
Duration : 1 h 8 min
Bit rate : 3 023 b/s
Count of elements : 943
Stream size : 1.48 MiB (0%)
Title : -==$ID==-
Language : French
Default : No
Forced : No

Text #3
ID : 6
Format : VobSub
Muxing mode : zlib
Codec ID : S_VOBSUB
Codec ID/Info : Picture based subtitle format used on DVDs
Duration : 1 h 9 min
Bit rate : 2 567 b/s
Count of elements : 947
Stream size : 1.27 MiB (0%)
Title : -==$ID==-
Language : Spanish
Default : No
Forced : No

Text #4
ID : 7
Format : VobSub
Muxing mode : zlib
Codec ID : S_VOBSUB
Codec ID/Info : Picture based subtitle format used on DVDs
Duration : 1 h 9 min
Bit rate : 2 633 b/s
Count of elements : 830
Stream size : 1.30 MiB (0%)
Title : -==$ID==-
Language : Portuguese
Default : No
Forced : No

Text #5
ID : 8
Format : UTF-8
Codec ID : S_TEXT/UTF8
Codec ID/Info : UTF-8 Plain Text
Duration : 1 h 41 min
Bit rate : 0 b/s
Count of elements : 7
Stream size : 308 Bytes (0%)
Title : -==$ID==-
Language : English
Default : Yes
Forced : Yes



d891298efeaff0b3c09e0.jpg
23364784a5f8256607414.jpg
e29ba4798ba0b4c1b2303.jpg
3a5181f50b2fd66549532.jpg
a1a6a922dd1cc719bc3cf.jpg
4dd4c6a20e3cd54a72c5d.jpg



Scooby-Doo and the Ghoul School (1988) 480p DVDRip x264 MSub [Dual Audio] [Hindi DD2.0 + English AAC1.0]-==$ID==-


00139d7bfdcc9397984a1.jpg

Video
ID : 1
Format : AVC
Format/Info : Advanced Video Codec
Format profile : [email protected]
Format settings : CABAC / 4 Ref Frames
Format settings, CABAC : Yes
Format settings, Reference frames : 4 frames
Codec ID : V_MPEG4/ISO/AVC
Duration : 1 h 9 min
Bit rate : 1 000 kb/s
Width : 700 pixels
Height : 460 pixels
Display aspect ratio : 4:3
Original display aspect ratio : 4:3
Frame rate mode : Constant
Frame rate : 23.976 (24000/1001) FPS
Color space : YUV
Chroma subsampling : 4:2:0
Bit depth : 8 bits
Scan type : Progressive
Bits/(Pixel*Frame) : 0.130
Stream size : 496 MiB (73%)
Title : -==$ID==-
Default : Yes
Forced : No
Color range : Limited
Color primaries : BT.601 NTSC
Transfer characteristics : BT.709
Matrix coefficients : BT.601

Audio #1
ID : 2
Format : AAC LC SBR
Format/Info : Advanced Audio Codec Low Complexity with Spectral Band Replication
Commercial name : HE-AAC
Format settings : Explicit
Codec ID : A_AAC-2
Duration : 1 h 9 min
Bit rate : 129 kb/s
Channel(s) : 2 channels
Channel layout : L R
Sampling rate : 48.0 kHz
Frame rate : 23.438 FPS (2048 SPF)
Compression mode : Lossy
Delay relative to video : 31 ms
Stream size : 64.0 MiB (9%)
Title : -==$ID==-
Language : English
Default : Yes
Forced : No

Audio #2
ID : 3
Format : AC-3
Format/Info : Audio Coding 3
Commercial name : Dolby Digital
Codec ID : A_AC3
Duration : 1 h 9 min
Bit rate mode : Constant
Bit rate : 224 kb/s
Channel(s) : 2 channels
Channel layout : L R
Sampling rate : 48.0 kHz
Frame rate : 31.250 FPS (1536 SPF)
Compression mode : Lossy
Stream size : 111 MiB (16%)
Title : -==$ID==-
Language : Hindi
Service kind : Complete Main
Default : Yes
Forced : Yes

Text #1
ID : 4
Format : VobSub
Muxing mode : zlib
Codec ID : S_VOBSUB
Codec ID/Info : Picture based subtitle format used on DVDs
Duration : 1 h 8 min
Bit rate : 2 745 b/s
Count of elements : 923
Stream size : 1.35 MiB (0%)
Title : -==$ID==-
Language : English
Default : No
Forced : No

Text #2
ID : 5
Format : VobSub
Muxing mode : zlib
Codec ID : S_VOBSUB
Codec ID/Info : Picture based subtitle format used on DVDs
Duration : 1 h 8 min
Bit rate : 3 023 b/s
Count of elements : 943
Stream size : 1.48 MiB (0%)
Title : -==$ID==-
Language : French
Default : No
Forced : No

Text #3
ID : 6
Format : VobSub
Muxing mode : zlib
Codec ID : S_VOBSUB
Codec ID/Info : Picture based subtitle format used on DVDs
Duration : 1 h 9 min
Bit rate : 2 567 b/s
Count of elements : 947
Stream size : 1.27 MiB (0%)
Title : -==$ID==-
Language : Spanish
Default : No
Forced : No

Text #4
ID : 7
Format : VobSub
Muxing mode : zlib
Codec ID : S_VOBSUB
Codec ID/Info : Picture based subtitle format used on DVDs
Duration : 1 h 9 min
Bit rate : 2 633 b/s
Count of elements : 830
Stream size : 1.30 MiB (0%)
Title : -==$ID==-
Language : Portuguese
Default : No
Forced : No

Text #5
ID : 8
Format : UTF-8
Codec ID : S_TEXT/UTF8
Codec ID/Info : UTF-8 Plain Text
Duration : 1 h 41 min
Bit rate : 0 b/s
Count of elements : 7
Stream size : 308 Bytes (0%)
Title : -==$ID==-
Language : English
Default : Yes
Forced : Yes



d891298efeaff0b3c09e0.jpg
23364784a5f8256607414.jpg
e29ba4798ba0b4c1b2303.jpg
3a5181f50b2fd66549532.jpg
a1a6a922dd1cc719bc3cf.jpg
4dd4c6a20e3cd54a72c5d.jpg

Quote:



<< 이 게시판에서 관련된 자료 목록 >>
0 Comments     0.0 / 0
 [구글검색] 구글에서 더토렌트 검색 - 구글에서 토렌트를 검색하실 때에 검색어 뒤에 더토렌트를 꼭 붙여서 검색하세요.     더토렌트에서 광고중인 웹에 문제가 있다면 메뉴에 나와 있는 운영자 이메일로 연락 주십시오. 우리는 당신에게 꼭 필요한 사이트만 광고합니다.     사용자님의 다운로드가 완료될 때까지 저희가 함께하겠습니다. 편안하고 즐거운 시간 되십시오.

파일마루

오늘(6시간)의 업데이트


오늘의 인기 검색어


현재 인기있는 자료


영화 인기글


오늘의 인기글


실시간 검색어


3일 인기 자료


Facebook Twitter GooglePlus KakaoStory NaverBand